#TITLE:fascination maxx madness mix;
#SUBTITLE:;
#ARTIST:Unknown artist;
#TITLETRANSLIT:;
#SUBTITLETRANSLIT:;
#ARTISTTRANSLIT:;
#CREDIT:;
#BANNER:;
#BACKGROUND:;
#LYRICSPATH:;
#CDTITLE:;
#MUSIC:fascination maxx madness mix.mp3;
#OFFSET:0.000;
#SAMPLESTART:12.000;
#SAMPLELENGTH:12.000;
#SELECTABLE:YES;
#BPMS:0.000=499.998;
#STOPS:;
#BGCHANGES:;
// cache tags:
#FIRSTBEAT:0.000;
#LASTBEAT:240.063;
#SONGFILENAME:Songs/Music V.I.P ^_^/fascination maxx madness mix/fascination maxx madness mix.sm;
#HASMUSIC:1;
#HASBANNER:0;
#MUSICLENGTH:98.067;
// end cache tags

//---------------dance-single - ----------------
#NOTES:
     dance-single:
     :
     Challenge:
     15:
     1.000,1.000,1.000,1.000,1.000,986.000,550.000,608.000,0.000,522.000:
1111
1111
1111
1111
1111
2202
3303
0222
0333
2220
3330
0222
0333
0220
0330
2002
,
3003
0220
0330
2222
3333
2222
3333
2222
3333
2222
3333
0000
0011
0000
1100
0000
,
0110
0110
0011
1100
0001
0010
0100
1000
,
0010
0000
0000
0000
0000
0000
0000
0000
0100
0000
0000
0000
0000
0000
0000
0000
1000
0000
0000
0000
0000
0000
0000
0000
0001
0000
0000
0000
0000
0000
0000
0000
0010
0000
0000
0000
0000
0000
0000
0000
1100
0000
0000
0000
0000
0000
0000
0000
1111
1111
1111
1111
1111
0000
0000
0000
1010
0000
0000
0000
0000
0000
0000
0000
,
0110
0011
1100
0110
0101
1010
0001
0010
0100
1000
2222
3333
2222
3333
2222
3333
,
2222
0000
0000
3333
0000
0000
0000
0000
0000
0000
0021
0000
0200
0000
2030
0000
0302
0000
3020
0000
2203
0000
3332
0000
0220
0000
2033
0000
3300
0000
0000
0000
2220
0000
3332
0000
2103
0000
3202
0000
0303
0000
0222
0000
2003
0000
3332
0000
,
0220
0000
0000
0000
0000
0000
0000
0000
2333
0000
0000
0000
0000
0000
0000
0000
3022
0000
0000
0000
0000
0000
0000
0000
2200
0000
0000
0000
0000
0000
0000
0000
0333
0000
0000
0000
0000
0000
0000
0000
3000
0000
0000
0000
0000
0000
0000
0000
0000
0000
0000
0000
0000
0000
0000
0000
0000
0000
0000
0000
0000
0000
0000
0000
0000
0000
0000
0000
0000
0000
0000
0000
0000
0000
0000
0000
0000
0000
0000
0000
0000
0000
0000
0000
0000
0000
0000
0000
0000
0000
0000
0000
0000
0000
0000
0000
1111
0000
0000
0000
0000
0000
1111
0000
0000
0000
0000
0000
1111
0000
0000
0000
0000
0000
1111
0000
0000
0000
0000
0000
1111
0000
0000
0000
0000
0000
1111
0000
0000
0000
0000
0000
1111
0000
0000
0000
0000
0000
1111
0000
0000
0000
0000
0000
1111
0000
0000
0000
0000
0000
1111
0000
0000
0000
0000
0000
1111
0000
0000
0000
0000
0000
1111
0000
0000
0000
0000
0000
1111
0000
0000
0000
0000
0000
1111
0000
0000
0000
0000
0000
1111
0000
0000
0000
0000
0000
1111
0000
0000
0000
0000
0000
,
1111
1111
1111
1111
1111
1111
1111
1111
1111
1002
0100
0010
1000
0100
0010
1000
0100
0010
1000
0100
0010
1000
0100
0010
1000
0100
0010
1000
0100
0010
1000
0100
,
0013
1000
0100
2022
0033
0022
0030
0223
0302
0033
0000
0010
3102
0013
0000
0201
,
0001
1011
1011
1001
1310
1112
1110
1110
1110
1110
1110
1113
0001
0000
0010
0000
,
0100
1000
0001
0010
0100
0101
1010
1100
,
0110
0011
1100
1111
1111
1111
1111
0111
,
1100
1110
1111
0111
1110
1111
1110
0111
,
1111
1111
1111
1111
1111
1111
1111
1111
1111
1111
1111
1111
1111
1111
1111
1111
1111
1111
1111
1111
1111
1111
1111
1111
1111
1111
1111
1111
1111
1111
1111
1111
,
1111
1111
1111
1111
1111
1111
1111
1111
1111
1111
1111
1111
1111
1111
1111
1111
1111
1111
1111
1111
1111
1111
1111
1111
1111
1111
1111
1111
1111
1111
1111
1111
,
1111
1111
1111
1111
1111
1111
1111
1111
1111
1111
1111
1111
1111
1111
1111
1111
1111
1111
1111
1111
1111
1111
1111
1111
1111
1111
1111
1111
1111
1111
1111
1111
,
1111
1111
1111
1111
0001
0000
0000
0000
0010
0000
0000
0000
0100
0000
0000
0000
1000
0000
0000
0000
0201
0000
0000
0000
0310
0000
0000
0000
0010
0000
0000
0000
,
0101
1010
0101
0010
0101
0010
0101
1010
,
0100
1010
0100
1010
0100
0001
0010
0100
,
1000
0100
0010
0100
0010
0001
0110
1100
,
0111
0000
0000
0000
0000
0000
0000
0000
0000
0000
0000
0000
0000
0000
0000
0000
1111
0000
0000
0000
0000
0000
0000
0000
0000
0000
0000
0000
0000
0000
0000
0000
1111
0000
0000
0000
0000
0000
0000
0000
0000
0000
0000
0000
0000
0000
0000
0000
1111
0000
0000
0000
0000
0000
0000
0000
0000
0000
0000
0000
0000
0000
0000
0000
1111
0000
0000
0000
0000
0000
0000
0000
0000
0000
0000
0000
0000
0000
0000
0000
1111
0000
0000
0000
0000
0000
0000
0000
0000
0000
0000
0000
0000
0000
0000
0000
1111
0000
0000
0000
0000
0000
0011
0000
0000
1000
0000
0000
0011
0000
0000
0011
0000
0000
0022
0000
0000
2203
0000
0000
3332
0000
0000
0220
0000
0000
2033
0000
0000
3322
0000
0000
2200
0000
0000
0333
0000
0000
3000
0000
0000
0000
0000
0000
0000
0000
0000
0000
0000
0000
0000
0000
0000
0000
0000
0000
0000
0000
0000
0000
0000
0000
0000
0000
0000
0000
0000
0000
0100
0000
0000
0000
0000
0000
0000
0000
0000
0000
0000
0000
0000
0000
0000
0000
0000
0000
0000
0000
0000
0000
0000
0000
,
0010
0100
0010
0001
0100
0010
0001
1000
,
0100
0000
0000
0000
0000
0000
0000
0000
0010
0000
0000
0000
0000
0000
0000
0000
0001
0000
0000
0000
1000
1000
1000
1000
1000
1000
1000
1000
1000
1000
1000
1000
1000
1000
1000
1000
1000
1000
1000
1000
1000
1000
1000
1000
1000
1000
1000
1000
1000
1000
1000
1000
1000
1000
1000
1000
1000
1000
1000
1000
1000
1000
1000
1000
,
1100
0000
0000
0010
0000
0000
0001
0000
0000
0001
0000
0000
0001
0000
0000
0001
0000
0000
0001
0000
0000
0001
0000
0000
0001
0000
0000
0001
0000
0000
0001
0000
0000
0001
0000
0000
0001
0000
0000
0001
0000
0000
0001
0000
0000
0001
0000
0000
0001
0000
0000
0001
0000
0000
0001
0000
0000
0001
0000
0000
0001
0000
0000
0001
0000
0000
0001
0000
0000
0001
0000
0000
0001
0000
0000
0001
0000
0000
0001
0000
0000
0001
0000
0000
0001
0000
0000
0001
0000
0000
0001
0000
0000
0001
0000
0000
0001
0000
0000
0001
0000
0000
0001
0000
0000
0001
0000
0000
0001
0000
0000
0001
0000
0000
0001
0000
0000
0001
0000
0000
0001
0000
0000
0001
0000
0000
0001
0000
0000
0001
0000
0000
0001
0000
0000
0001
0000
0000
0001
0000
0000
0001
0000
0000
0001
0000
0000
0000
0000
0000
0000
0000
1111
0000
0000
0000
0000
0000
0000
0000
1111
0000
0000
0000
0000
0000
0000
0000
1111
0000
0000
0000
0000
0000
0000
0000
1111
0000
0000
0000
0000
0000
0000
0000
1111
0000
0000
0000
0000
0000
0000
0000
,
1111
1111
1111
1111
1111
1111
1111
1111
1111
1111
1111
1101
1111
1111
1111
1111
1111
1111
1111
1111
1111
1111
1111
1111
,
1211
0000
2301
0020
0130
0102
0023
3000
,
1102
0003
0101
0000
2132
3000
0110
0000
,
1123
0100
0101
0000
0130
1101
0010
2100
,
3100
0001
1100
1100
1100
1100
1100
1100
,
1100
0000
0000
0000
0000
0100
0010
0010
0100
0010
0100
0010
0000
0000
0000
0000
0011
0000
0000
0000
0000
0000
0000
0000
0011
0000
0000
0000
0000
0000
0000
0000
0011
0000
0000
0000
0000
0000
0000
0000
0011
0000
0000
0000
0000
0000
0000
0000
0011
0000
0000
0000
0000
0000
0000
0000
0011
0000
0000
0000
0000
0000
0000
0000
,
0011
0011
0011
0011
0011
0011
0011
0011
,
0011
0000
0000
0001
0000
0000
0010
0000
0000
0100
0000
0000
1000
0000
0000
0001
0010
0000
0100
0000
1000
0000
0001
0000
,
0010
0000
0000
0000
0100
0000
0000
0000
1000
0000
0000
0000
0001
0000
0000
0000
0010
0000
0000
0000
0100
0000
0000
0000
1000
0000
0000
0001
0000
0000
0010
0000
0000
0100
0000
0000
1000
0000
0000
0001
0000
0000
0010
0000
0000
0100
0000
0000
,
1000
0000
0000
0000
0000
0000
0000
0000
0000
0000
0000
0000
0001
0000
0000
0000
0000
0000
0000
0000
0000
0000
0000
0000
0010
0000
0000
0000
0000
0000
0000
0000
0000
0000
0000
0000
0100
0000
0000
0000
0000
0000
0000
0000
0000
0000
0000
0000
1000
0000
0000
0000
0000
0000
0000
0000
0001
0000
0000
0000
0000
0000
0000
0000
0010
0000
0000
0000
0000
0000
0000
0000
0100
0000
0000
0000
0000
0000
0000
0000
1000
0000
0000
0000
0000
0000
0000
0000
0001
0000
0000
0000
0000
0000
0000
0000
0010
0000
0000
0000
0000
0000
0000
0000
0100
0000
0000
0000
0000
0000
0000
0000
1000
0000
0000
0000
0000
0000
0000
0000
0001
0000
0000
0000
0000
0000
0000
0000
0010
0000
0000
0000
0000
0000
0000
0000
0100
0000
0000
0000
0000
0000
0000
0000
1000
0000
0000
0000
0000
0000
0001
0000
0000
0000
0000
0000
0010
0000
0000
0000
0000
0000
0100
0000
0000
0000
0000
0000
1000
0000
0000
0000
0000
0000
0001
0000
0000
0000
0000
0000
0010
0000
0000
0000
0000
0000
0100
0000
0000
0000
0000
0000
,
1000
0000
0000
0000
0000
0000
0001
0000
0000
0000
0000
0000
0010
0000
0000
0000
0000
0000
0100
0000
0000
0000
0000
0000
1000
0000
0000
0000
0001
0000
0000
0000
0010
0000
0000
0000
0100
0000
0000
0000
1000
0000
0000
0000
0001
0000
0000
0000
0010
0000
0000
0000
0100
0000
0000
0000
1000
0000
0000
0000
0001
0000
0000
0000
0010
0000
0000
0000
0100
0000
0000
0000
1000
0000
0000
0001
0000
0000
0010
0000
0000
0200
0000
0000
1300
0000
0000
0001
0000
0000
0010
0000
0000
0100
0000
0000
1000
0000
0000
0001
0000
0000
0010
0000
0000
0100
0000
0000
1000
0000
0000
0000
0000
0000
0000
0000
0000
0000
0000
0000
1100
0000
0000
0000
0000
0000
0000
0000
0000
0000
0000
0000
0000
0000
0000
0000
0000
0000
0000
0000
0000
0000
0000
0000
0011
0000
0000
0000
0000
0000
0000
0000
0000
0000
0000
0000
0000
0000
0000
0000
0000
0000
0000
0000
0000
0000
0000
0000
1100
0000
0000
0000
0000
0000
0000
0000
0000
0000
0000
0000
0000
0000
0000
0000
0000
0000
0000
0000
0000
0000
0000
0000
,
0011
1100
0111
0111
0111
0111
0111
1110
,
1110
1110
1110
1101
0111
1101
1011
1101
,
1011
1101
1011
1101
1011
0011
0110
1100
,
0110
0011
1100
0110
0011
0000
0011
0000
,
1100
0000
0000
0000
0000
0000
0110
0000
0000
0000
0000
0000
2002
0220
0330
0000
0000
0000
0210
0320
0230
0320
0230
0320
,
0230
0300
0020
0030
0200
0300
0000
0200
0320
0030
0000
0020
0230
0320
0030
0200
0320
0230
0300
0020
0230
0300
0020
0230
,
0320
0230
0300
0020
0230
0320
0030
0000
0020
0030
0020
0230
0300
0020
0230
0300
0020
0130
0200
0300
0020
0030
0000
0010
,
0120
0230
0300
0010
0020
0130
0200
0310
0000
3003
0000
0000
2201
3302
2003
3222
1333
0222
2333
3222
2003
3332
0220
2333
,
3002
0220
2333
3022
2203
3330
0022
2233
3302
0220
2333
3022
2203
0330
3022
2203
0330
3022
2203
3330
0022
2233
3302
2220
,
0333
0000
0000
0000
0000
0000
0000
0000
3000
0000
0000
0000
0000
0000
0000
0000
0000
0000
0000
0000
0000
0000
0000
0000
0111
0000
0000
0000
0000
0000
0000
0000
0000
0111
0000
0000
0111
0000
0000
0000
0000
0000
0111
0000
0000
0111
0000
0000
0000
0000
0000
0012
0000
0000
0003
0000
0000
1000
0000
0000
1220
0000
0000
0332
0000
0000
0223
0000
0000
0330
0000
0000
2222
0000
0000
3333
0000
0000
1111
0000
0000
0000
0000
0000
2222
0000
0000
3333
0000
0000
1111
0000
0000
0101
0000
0000
0000
0000
0000
2222
0000
0000
3333
0000
0000
1101
0000
0000
0100
0000
0000
0200
0000
0000
2320
0000
0000
3130
0000
0000
1000
0000
0000
0000
0000
0000
2222
0000
0000
3333
0000
0000
1111
0000
0000
1100
0000
0000
0000
0000
0000
0000
0000
0000
2222
0000
0000
3333
0000
0000
0001
0000
0000
0000
0000
0000
0222
0000
0000
2333
0000
0000
3111
0000
0000
0000
0000
0000
0200
0000
0000
2322
0000
0000
3133
0000
0000
1111
0000
0000
0000
0000
0000
0000
0000
0000
0000
0000
0000
0000
0000
0000
,
1110
0101
1010
0101
0110
1100
0110
0011
,
1001
0000
0000
0110
0000
0000
1001
0000
0000
0000
0002
0000
0023
0000
0130
0000
1000
0000
0001
0000
0010
0000
0200
0000
,
1300
0001
0010
0100
1000
0001
0010
0100
1000
0010
0010
0010
,
0010
0010
0010
0010
0010
0010
0010
0010
0010
0010
0010
0010
,
0010
0100
0100
0100
0100
0100
0100
0100
0100
0100
0100
0100
,
0100
0100
0200
0320
0030
0000
1010
0200
0322
1133
2121
3032
,
0223
2332
3103
0222
2333
3002
2223
3332
2220
0333
3200
0322
,
1133
1111
1000
0000
0222
0333
0111
0200
0300
0022
0133
0011
,
0220
0330
1010
0000
2110
3000
2220
3330
0220
0331
0000
0012
,
0003
2220
3330
0000
2220
3330
2222
3333
0202
0020
0333
2222
,
3333
2222
3003
0330
2222
3333
2222
3333
0000
0222
2333
3111
,
1011
0000
0000
0000
0000
0000
0000
0000
0000
0000
0000
0000
0000
0000
0000
0000
1011
0000
0000
0000
0000
0000
0000
0000
0000
0000
0000
0000
0000
0000
0000
0000
0111
0000
0000
0000
0000
0000
0000
0000
0000
0000
0000
0000
0000
0000
0000
0000
2212
0000
0000
0000
0000
0000
0000
0000
0000
0000
0000
0000
0000
0000
0000
0000
3303
0000
0000
0000
0000
0000
0000
0000
0000
0000
0000
0000
0000
0000
0222
0000
0000
0330
0000
0000
2003
0000
0000
3222
0000
0000
0333
0000
0000
0222
0000
0000
0333
0000
0000
0202
0000
0000
0303
0000
0000
2220
0000
0000
3332
0000
0000
2223
0000
0000
3332
0000
0000
2223
0000
0000
3332
0000
0000
2223
0000
0000
3332
0000
0000
2223
0000
0000
3332
0000
0000
0220
0000
0000
0333
0000
0000
2222
0000
0000
0333
0000
0000
3002
0000
0000
2003
0000
0000
3022
0000
0000
2203
0000
0000
3332
0000
0000
2123
0000
0000
3032
0000
0000
2223
0000
0000
3332
0000
0000
0003
0000
0000
0002
0000
0000
1003
0000
0000
0220
0000
0000
1330
0000
0000
0000
0000
0000
,
2222
3333
0111
0000
0222
0333
0111
0000
2022
3033
1111
0000
2020
0202
0333
0000
3220
1302
2203
3330
1112
0223
0000
2002
3333
2122
3033
0111
0222
0333
0000
0111
2022
0133
0111
3222
0333
0110
2122
3233
0300
0102
0203
0300
0111
0222
0333
0111
0222
0333
0110
0111
2222
3333
0122
0033
0100
0100
2222
3333
0000
2222
3333
0100
,
0022
0033
0100
0022
0033
0111
2222
3333
0111
2222
3333
1122
2033
3110
2022
3233
0310
0220
2330
3111
2222
3333
0110
2222
3333
0110
2222
3333
0000
2022
3033
0000
2222
3333
0000
0111
2222
3333
2112
0223
3330
0101
0002
0003
0100
2222
3333
0100
2222
3333
0111
2222
3333
0111
2222
3333
1111
2222
3333
0000
1122
2233
3300
2222
,
3333
0000
0101
0222
0333
0010
2222
0333
3000
1101
2222
3333
0111
0222
0333
0111
0222
0333
1010
2220
3330
2111
3222
0333
1111
2222
3333
0000
0001
2222
3333
0102
0223
0331
0002
2203
3022
0333
2222
3303
0200
0302
2233
3022
0333
2222
3330
2223
3332
2223
3330
0220
2331
3102
2223
3330
0102
2203
3022
0333
1202
2323
3032
1103
,
2222
3333
0000
0000
0000
0000
0000
0000
0000
0000
0000
0000
0000
0000
0000
0000
0000
0000
0000
0000
0000
0000
0000
0000
0000
0000
0000
0000
0000
0000
0000
0000
0000
0000
0000
0000
0000
0000
0000
0000
0000
0000
0000
0000
0000
0000
0000
0000
0000
0000
0000
0000
0000
0000
0000
0000
0000
0000
0000
0000
0000
0000
0000
0000
;
